#TITLE:Setsugekka;
#SUBTITLE:~Sky Fid original~;
#ARTIST:Ryu*;
#TITLETRANSLIT:;
#SUBTITLETRANSLIT:;
#ARTISTTRANSLIT:;
#CREDIT:;
#BANNER:setsugekka -banner-.jpg;
#BACKGROUND:setsugekka -bg-.png;
#LYRICSPATH:;
#CDTITLE:sky fid.png;
#MUSIC:104.setsugekka.mp3;
#OFFSET:-0.438;
#SAMPLESTART:84.000;
#SAMPLELENGTH:12.000;
#SELECTABLE:YES;
#BPMS:0.000=151.000;
#STOPS:;
#BGCHANGES:;
// cache tags:
#FIRSTBEAT:2.500;
#LASTBEAT:276.750;
#SONGFILENAME:Songs/Chilean Keyboard Megapack 3/(Sky Fid) Setsugekka/setsugekka.sm;
#HASMUSIC:1;
#HASBANNER:1;
#MUSICLENGTH:115.777;
// end cache tags

//---------------dance-single - ----------------
#NOTES:
     dance-single:
     :
     Challenge:
     13:
     1.000,1.000,1.000,0.268,1.000,741.000,296.000,31.000,0.000,1.000:
0000
0000
0000
0000
0000
0000
0000
0000
0000
0000
0001
1000
0001
0000
0110
0000
,
1001
0010
0100
0001
0011
0001
1000
0010
,
1010
0010
0100
0010
0110
0010
1000
0100
,
1100
0100
0010
0100
0101
0001
0010
0100
,
0110
0100
0001
0010
0011
1010
1001
1001
,
0101
0010
0100
0001
0011
1001
0100
0010
,
0110
0001
1000
0010
0110
1001
0100
1000
,
0101
0011
1100
1001
1010
0110
0001
0010
,
0110
1010
0100
0001
2100
0010
0010
3002
,
0000
0000
0000
0003
,
1001
0100
0001
0000
0011
0000
0100
0100
0000
1100
0000
1001
0000
0100
1000
0100
,
0011
0100
0001
0000
0110
0000
0001
0001
0000
0110
0000
1001
0000
0100
0001
0100
,
1010
0100
0001
0000
1100
0000
0010
0010
0000
1100
0000
0101
0000
0010
0001
1000
,
0110
0001
0100
0000
0011
0000
1000
1000
0011
0100
1001
0010
1100
0001
1100
0010
,
0011
1000
0001
0000
0110
0000
0010
0110
0000
1100
0000
0011
0000
1100
0001
1000
,
0101
0010
0100
0000
0110
0000
1000
0101
0000
0110
0000
1001
0000
0110
0001
1000
,
0011
0100
0001
0000
1001
0000
1010
1010
0000
0110
0000
0001
0000
0101
0010
1000
,
0011
0100
0010
0100
1000
0010
0100
0001
1100
0001
0010
1000
0100
1000
0001
0010
,
1001
0100
0010
0000
0110
0000
1010
0110
0000
0001
0010
1001
0000
0010
0100
0001
,
0110
0001
0100
0000
1100
0000
0011
0110
0000
0001
0100
0011
0000
0100
0100
0010
,
1001
0100
0010
0000
0110
0000
0110
1001
0000
0010
0100
1010
0000
1000
0100
1000
,
0011
1000
0011
0000
0110
0000
0001
0100
0010
1100
0001
1100
0010
0100
0010
1000
,
1001
0100
0001
0000
1100
0000
0011
0011
0000
1000
0000
0010
0000
1000
0010
0100
,
1001
0100
1001
0000
0110
0000
1100
0101
0000
1001
0000
0011
0000
1000
0010
0100
,
0011
1000
0011
0000
0110
0000
1010
0011
0000
1100
0000
0101
0000
0101
0010
0101
,
1000
0000
0000
0000
0001
0010
0100
1000
0000
0000
0000
0000
1000
0100
0010
0001
0000
0000
0000
0000
0010
0000
0100
0000
0001
0000
1000
0000
0001
0010
0100
1000
,
0022
0033
1000
0001
0000
0001
1100
0000
0110
0000
0101
0010
0000
0010
1000
0000
,
1001
0000
0110
1100
0000
1100
0011
0000
0101
0000
0010
0100
0011
1000
0100
0001
,
0110
1000
0001
0100
0010
0001
1000
0100
0010
1000
0100
0010
1000
0010
0001
1000
,
0100
0000
0000
0010
0000
0000
0001
0000
0000
0100
0000
0000
0010
0000
0000
0001
0000
0000
0010
0000
0000
1000
0000
0000
0110
0000
0000
0000
0011
0000
0000
0000
0011
0000
0000
0000
1001
0000
0000
0000
0110
0000
0000
0000
0110
0000
0000
0000
,
1002
0100
0013
0100
1000
0100
0010
1000
0100
0001
0100
0010
0001
1000
0001
0100
,
2010
0100
3001
0100
0010
0001
0010
1000
0001
0010
1000
0001
1000
0010
0001
1000
,
0021
0100
0031
1000
0100
0001
0010
0100
2001
0100
3001
0100
1000
0001
0100
0010
,
0001
0000
0000
0000
0010
0100
0010
0100
0010
0000
0000
0000
0100
0000
0001
0000
1000
0000
0010
0000
1000
0100
0010
0001
1000
0100
0010
0001
1000
0100
0010
0001
,
1100
0000
2001
0000
0100
3000
0021
0000
1000
0030
0210
0000
0001
0300
2100
0000
,
0010
3000
0102
0000
1000
0003
0021
0000
1000
0030
0210
0000
0010
0300
1200
0000
,
0301
0000
1010
1010
0101
0000
0110
0000
1010
0000
0011
0011
1100
0000
0101
0000
,
1010
0000
1100
1100
0110
0000
1100
0000
1010
0100
0001
0100
0010
1000
0100
0010
,
1001
0000
0011
1000
0011
0000
0100
0000
1001
0000
1010
0100
1010
0000
0001
0000
,
0101
0000
1100
0001
1100
0000
0010
0000
1001
0010
1001
0100
0010
1000
0001
0100
,
0011
0000
1010
0110
1001
0000
0110
0000
1001
0000
0012
0010
0010
0003
1100
0000
,
0001
0000
0000
0000
0110
0000
0000
0000
0010
0000
1100
0000
0000
0000
0010
0000
0101
0000
0000
0000
0001
0100
0001
0100
0001
0000
0000
0000
0010
0000
0010
0000
,
1200
0001
0000
1000
0000
0010
0300
0021
,
0000
0001
0000
1000
1000
0100
0130
1010
,
1001
0000
0120
0000
0000
0000
0001
0000
0000
0000
1000
0000
0000
0000
0100
0030
,
0000
2010
0000
0100
0100
3010
0100
0001
,
2002
0000
0000
0000
,
0000
0000
3003
0000
0101
0001
1001
1000
,
1200
0001
0001
0310
0011
0010
1000
0001
,
0110
0000
0110
0000
1000
0000
0001
0000
0100
0000
1010
0000
0200
0000
0000
0300
,
0010
0000
1100
0000
0001
0000
1100
0000
0010
0000
1100
0000
0010
0000
0000
0000
0001
0100
0001
0100
0000
0000
0001
0010
0100
1000
0000
0000
0001
0000
0000
0000
,
0110
0000
0010
0100
1001
0000
0010
0100
0011
0000
0110
1000
0110
0000
0101
1010
,
0101
0000
0101
0000
0101
0000
1010
0000
2100
0000
0010
0010
0010
0010
3001
0100
,
1001
0000
0100
0010
0000
0011
0100
0010
0000
1001
0000
1100
0000
0001
0100
0010
,
0101
1000
0000
0010
1010
0000
0110
0000
1001
0000
0010
0110
0000
0110
0000
1000
,
1001
0000
1010
0100
0000
1000
0010
1000
0000
0011
0000
1100
0000
1010
0100
0010
,
1000
1001
0000
0011
1001
0000
0101
0000
1010
0100
1000
0100
0011
1000
0100
0010
,
1001
0000
1100
1100
0000
0011
0100
0011
0000
1000
0000
0001
0000
0010
0001
0100
,
0011
1100
0000
1001
1001
0000
0100
0000
0001
1000
0010
0100
0011
1000
0100
0000
,
0101
0000
1010
0101
0000
1001
0110
1001
0000
1100
0000
0101
0000
0010
0100
0001
,
0110
0000
1010
0000
0000
0000
1010
0000
1001
0000
0000
0000
0001
0010
0100
1000
0100
0010
0001
0000
0100
0000
0000
0000
1001
0000
0000
0000
0101
0000
0000
0000
,
1001
0000
0010
0101
0000
1000
0011
1000
0000
0110
0000
0101
0000
1010
0100
0011
,
1000
1000
0000
0101
1100
0000
0110
0000
0011
0100
0011
0000
1000
0010
0001
0100
,
1001
0010
0100
0010
0000
1001
0010
1001
0000
0101
0000
1100
0000
1000
0100
0010
,
1100
0001
0000
0011
0011
0000
0110
0000
1001
1100
0000
0001
0000
0100
0000
1010
,
1001
0100
0010
0200
0300
0011
1100
0011
0000
1010
0000
0110
0000
0010
0100
0001
,
0110
1001
0000
0101
0110
0000
1100
0000
0001
1000
0010
1100
0001
0100
0011
0100
,
2020
3130
0001
0010
0100
0001
0100
1000
0011
1000
0010
0001
1000
0001
0010
1000
,
0110
0110
0000
1100
0011
0000
0011
1001
0000
1001
1100
0000
0110
0000
2002
0000
,
0000
0000
0000
3003
0000
0000
0000
0000
0000
0000
0000
0000
0000
0000
0000
0000
;
